<?xml version="1.0" standalone="no"?>
<!DOCTYPE svg PUBLIC "-//W3C//DTD SVG 1.1//EN" "http://www.w3.org/Graphics/SVG/1.1/DTD/svg11.dtd" >
<svg xmlns="http://www.w3.org/2000/svg">
<metadata>Generated by IcoMoon</metadata>
<defs>
<font id="icomoon" horiz-adv-x="1024">
<font-face units-per-em="1024" ascent="960" descent="-64" />
<missing-glyph horiz-adv-x="1024" />
<glyph unicode="&#x20;" horiz-adv-x="512" d="" />
<glyph unicode="&#xe666;" glyph-name="viber" horiz-adv-x="926" d="M262.144-64c-14.336 0-27.648 0-41.984 0 0 53.248-1.024 107.52 0 161.792 0 19.456-6.144 28.672-23.552 33.792-62.464 17.408-109.568 54.272-140.288 111.616-14.336 25.6-26.624 53.248-32.768 81.92-10.24 43.008-16.384 86.016-23.552 130.048 0 31.744 0 63.488 0 95.232 4.096 30.72 7.168 62.464 12.288 94.208 8.192 60.416 19.456 119.808 57.344 171.008 54.272 72.704 130.048 107.52 215.040 126.976 40.96 9.216 82.944 13.312 123.904 19.456 32.768 0 65.536 0 99.328 0 6.144-1.024 12.288-2.048 18.432-3.072 46.080-7.168 92.16-11.264 137.216-20.48 134.144-28.672 224.256-105.472 247.808-246.784 6.144-33.792 10.24-68.608 16.384-103.424 0-43.008 0-86.016 0-129.024-1.024-7.168-2.048-14.336-3.072-22.528-7.168-41.984-13.312-83.968-23.552-124.928-28.672-106.496-96.256-174.080-204.8-195.584-63.488-12.288-129.024-15.36-194.56-21.504-28.672-3.072-60.416 5.12-84.992-5.12-24.576-11.264-41.984-39.936-61.44-60.416-32.768-32.768-62.464-62.464-93.184-93.184zM264.192 4.608c33.792 32.768 66.56 61.44 95.232 95.232 23.552 28.672 52.224 37.888 88.064 38.912 64.512 1.024 129.024 4.096 193.536 12.288 129.024 15.36 193.536 73.728 223.232 200.704 25.6 111.616 22.528 223.232 2.048 335.872-20.48 110.592-86.016 175.104-192.512 200.704-49.152 12.288-101.376 20.48-151.552 25.6-98.304 9.216-196.608 1.024-290.816-33.792-68.608-25.6-125.952-65.536-151.552-137.216-12.288-32.768-18.432-68.608-23.552-103.424-15.36-100.352-17.408-200.704 9.216-300.032 21.504-79.872 63.488-142.336 147.456-165.888 4.096-1.024 7.168-3.072 10.24-4.096 32.768-13.312 41.984-26.624 41.984-62.464-1.024-33.792-1.024-66.56-1.024-102.4zM604.16 223.744c-9.216 2.048-19.456 3.072-27.648 7.168-163.84 69.632-289.792 180.224-366.592 340.992-11.264 22.528-19.456 46.080-28.672 70.656-22.528 61.44 33.792 114.688 86.016 115.712 10.24 0 24.576-7.168 30.72-14.336 25.6-32.768 50.176-66.56 72.704-101.376 12.288-18.432 8.192-34.816-10.24-48.128-41.984-30.72-46.080-51.2-16.384-103.424s72.704-87.040 126.976-109.568c20.48-9.216 37.888-5.12 50.176 14.336 20.48 33.792 53.248 43.008 94.208 13.312 23.552-16.384 46.080-33.792 68.608-51.2 23.552-18.432 26.624-36.864 13.312-63.488-19.456-39.936-50.176-63.488-93.184-70.656zM488.448 805.376c149.504-1.024 264.192-142.336 233.472-287.744-4.096-18.432-13.312-27.648-27.648-24.576-17.408 4.096-19.456 17.408-16.384 32.768 24.576 139.264-89.088 253.952-228.352 230.4-18.432-3.072-29.696 3.072-32.768 17.408-2.048 14.336 6.144 23.552 25.6 26.624 15.36 2.048 30.72 3.072 46.080 5.12zM486.4 737.792c108.544-3.072 187.392-96.256 172.032-198.656-2.048-15.36-8.192-25.6-25.6-23.552-16.384 2.048-20.48 13.312-18.432 29.696 9.216 90.112-56.32 156.672-146.432 147.456-15.36-1.024-26.624 3.072-28.672 19.456s9.216 23.552 23.552 25.6c10.24-2.048 19.456-1.024 23.552 0zM593.92 563.712c1.024-13.312-3.072-24.576-19.456-26.624-16.384-1.024-22.528 9.216-24.576 24.576-4.096 38.912-25.6 59.392-64.512 63.488-15.36 1.024-24.576 9.216-23.552 23.552 1.024 16.384 12.288 21.504 28.672 20.48 54.272-1.024 103.424-50.176 103.424-105.472z" />
<glyph unicode="&#xe901;" glyph-name="g_plus" horiz-adv-x="1608" d="M558.080 960c26.624-5.12 53.248-9.216 79.872-15.36 80.896-19.456 151.552-59.392 212.992-115.712-50.176-49.152-99.328-98.304-148.48-147.456-2.048 1.024-5.12 3.072-8.192 6.144-115.712 92.16-266.24 89.088-376.832-9.216-94.208-83.968-124.928-189.44-93.184-309.248 32.768-119.808 113.664-195.584 236.544-219.136 78.848-15.36 154.624-1.024 222.208 44.032 54.272 35.84 86.016 87.040 99.328 151.552-91.136 0-180.224 0-271.36 0 0 68.608 0 136.192 0 205.824 6.144 0 12.288 0 18.432 0 147.456 0 293.888 0 441.344 0 15.36 0 21.504-3.072 23.552-19.456 24.576-176.128-10.24-335.872-138.24-465.92-76.8-77.824-176.128-111.616-282.624-125.952-7.168-1.024-13.312-3.072-20.48-4.096-29.696 0-58.368 0-88.064 0-4.096 1.024-8.192 3.072-12.288 3.072-206.848 23.552-380.928 173.056-434.176 374.784-8.192 29.696-12.288 60.416-18.432 91.136 0 29.696 0 58.368 0 88.064 1.024 5.12 3.072 9.216 3.072 14.336 26.624 210.944 171.008 376.832 375.808 434.176 28.672 8.192 58.368 12.288 87.040 18.432 30.72 0 61.44 0 92.16 0zM1607.68 410.112c-58.368 0-116.736 0-177.152 0 0-59.392 0-117.76 0-177.152-44.032 0-84.992 0-129.024 0 0 59.392 0 116.736 0 177.152-60.416 0-117.76 0-177.152 0 0 43.008 0 83.968 0 128 57.344 0 114.688 0 176.128 0 0 61.44 0 118.784 0 177.152 45.056 0 86.016 0 129.024 0 0-58.368 0-115.712 0-175.104 61.44 0 119.808 0 179.2 0-1.024-43.008-1.024-87.040-1.024-130.048z" />
<glyph unicode="&#xe902;" glyph-name="pinterest" horiz-adv-x="768" d="M766.976 568.832c-5.12-27.648-9.216-55.296-15.36-82.944-14.336-59.392-37.888-115.712-76.8-163.84-66.56-79.872-150.528-118.784-256-99.328-35.84 6.144-65.536 24.576-88.064 53.248-2.048 3.072-4.096 6.144-5.12 9.216-1.024-1.024-3.072-1.024-5.12-2.048-9.216-37.888-19.456-76.8-28.672-114.688-18.432-83.968-58.368-156.672-107.52-224.256-3.072-4.096-9.216-6.144-13.312-8.192-2.048 4.096-6.144 9.216-7.168 14.336-13.312 94.208-6.144 187.392 17.408 279.552 20.48 78.848 36.864 159.744 54.272 239.616 3.072 12.288 0 26.624-3.072 38.912-13.312 47.104-13.312 93.184 1.024 139.264 9.216 26.624 22.528 50.176 46.080 66.56 26.624 19.456 56.32 25.6 87.040 10.24 29.696-15.36 45.056-40.96 43.008-73.728-2.048-33.792-9.216-66.56-17.408-99.328-9.216-39.936-23.552-77.824-31.744-117.76-14.336-70.656 39.936-122.88 111.616-107.52 33.792 7.168 60.416 26.624 81.92 53.248 46.080 58.368 65.536 125.952 70.656 197.632 3.072 40.96 3.072 83.968-5.12 123.904-20.48 91.136-86.016 138.24-175.104 155.648-138.24 26.624-271.36-49.152-315.392-180.224-16.384-48.128-22.528-97.28-10.24-147.456 5.12-19.456 13.312-38.912 25.6-55.296 12.288-18.432 16.384-36.864 9.216-57.344-4.096-10.24-5.12-22.528-9.216-32.768-7.168-19.456-15.36-22.528-33.792-12.288-44.032 24.576-74.752 59.392-92.16 108.544-66.56 190.464 50.176 387.072 210.944 448.512 37.888 14.336 79.872 21.504 119.808 31.744 3.072 1.024 7.168 2.048 10.24 3.072 27.648 0 56.32 0 83.968 0 5.12-1.024 10.24-3.072 16.384-4.096 130.048-20.48 228.352-86.016 280.576-209.92 11.264-27.648 17.408-56.32 25.6-86.016 1.024-32.768 1.024-63.488 1.024-94.208z" />
<glyph unicode="&#xe903;" glyph-name="reddit" horiz-adv-x="1183" d="M1182.72 520.704c0-23.552 0-47.104 0-69.632-13.312-26.624-21.504-59.392-40.96-79.872-26.624-26.624-36.864-55.296-41.984-92.16-17.408-116.736-89.088-197.632-186.368-258.048-102.4-63.488-216.064-87.040-336.896-84.992-106.496 2.048-204.8 24.576-295.936 78.848-117.76 69.632-195.584 166.912-201.728 310.272 0 5.12-3.072 11.264-6.144 14.336-39.936 30.72-62.464 72.704-72.704 120.832 0 17.408 0 33.792 0 51.2 1.024 1.024 2.048 2.048 3.072 4.096 30.72 116.736 121.856 159.744 231.424 109.568 6.144-3.072 18.432-1.024 24.576 2.048 63.488 40.96 133.12 67.584 206.848 80.896 27.648 5.12 56.32 8.192 87.040 12.288 0 28.672-1.024 58.368 0 86.016 3.072 65.536 32.768 113.664 94.208 140.288 11.264 5.12 23.552 8.192 34.816 11.264 18.432 0 37.888 0 56.32 0 69.632-22.528 129.024-73.728 208.896-74.752 3.072 37.888 26.624 59.392 58.368 74.752 14.336 0 27.648 0 41.984 0 3.072-2.048 6.144-4.096 9.216-6.144 36.864-18.432 54.272-52.224 46.080-90.112-7.168-33.792-37.888-59.392-75.776-61.44-80.896-4.096-159.744 7.168-232.448 46.080-21.504 11.264-43.008 21.504-65.536 29.696-41.984 14.336-86.016-10.24-92.16-53.248-5.12-33.792-1.024-69.632-1.024-103.424 1.024 0 3.072-1.024 4.096-2.048 8.192-1.024 16.384-2.048 25.6-2.048 92.16-10.24 179.2-36.864 258.048-88.064 13.312-8.192 21.504-8.192 34.816-2.048 93.184 46.080 193.536 1.024 221.184-98.304 0-1.024 1.024-3.072 3.072-6.144zM578.56 644.608c-16.384-1.024-47.104-2.048-76.8-7.168-108.544-17.408-206.848-58.368-279.552-144.384-59.392-69.632-80.896-150.528-51.2-239.616 20.48-63.488 62.464-110.592 115.712-148.48 81.92-59.392 175.104-86.016 275.456-91.136 126.976-6.144 244.736 21.504 347.136 99.328 155.648 118.784 155.648 309.248 1.024 429.056-94.208 72.704-201.728 100.352-331.776 102.4zM93.184 433.664c25.6 41.984 52.224 84.992 77.824 128-27.648 8.192-59.392 0-75.776-21.504-21.504-28.672-21.504-76.8-2.048-106.496zM1012.736 561.664c26.624-43.008 52.224-86.016 77.824-126.976 18.432 27.648 18.432 76.8-2.048 106.496-15.36 20.48-48.128 28.672-75.776 20.48zM399.36 243.2c150.528-113.664 296.96-75.776 385.024 0-9.216-66.56-100.352-143.36-179.2-149.504-83.968-6.144-182.272 65.536-205.824 149.504zM473.088 408.064c0-44.032-34.816-78.848-78.848-78.848-43.008 0-78.848 36.864-78.848 79.872s36.864 78.848 79.872 78.848c43.008-1.024 77.824-35.84 77.824-79.872zM710.656 409.088c0 43.008 34.816 78.848 77.824 78.848s78.848-35.84 79.872-77.824c1.024-43.008-36.864-80.896-79.872-79.872-43.008-1.024-77.824 34.816-77.824 78.848z" />
<glyph unicode="&#xe904;" glyph-name="twitter" horiz-adv-x="1250" d="M836.608 960c20.48 0 40.96 0 60.416 0 1.024-1.024 3.072-2.048 5.12-3.072 54.272-8.192 101.376-33.792 142.336-69.632 6.144-5.12 17.408-7.168 25.6-5.12 31.744 9.216 63.488 20.48 95.232 31.744 16.384 6.144 32.768 15.36 52.224 24.576-19.456-58.368-54.272-101.376-104.448-139.264 10.24 1.024 13.312 1.024 17.408 2.048 39.936 10.24 79.872 21.504 119.808 32.768 0-1.024 0-3.072 0-4.096-4.096-4.096-8.192-9.216-12.288-13.312-32.768-33.792-64.512-67.584-98.304-99.328-10.24-10.24-16.384-19.456-16.384-33.792 1.024-77.824-8.192-155.648-33.792-229.376-87.040-257.024-253.952-431.104-522.24-498.688-39.936-10.24-81.92-14.336-122.88-20.48-36.864 0-73.728 0-109.568 0-5.12 1.024-9.216 3.072-14.336 3.072-100.352 8.192-194.56 37.888-282.624 84.992-13.312 7.168-25.6 14.336-37.888 22.528 136.192-5.12 259.072 27.648 371.712 111.616-118.784 11.264-196.608 70.656-240.64 180.224 37.888 0 72.704 0 107.52 0 0 2.048 0 4.096 0 5.12-57.344 16.384-105.472 45.056-142.336 92.16-35.84 47.104-56.32 98.304-54.272 157.696 35.84-10.24 69.632-19.456 103.424-27.648 1.024 2.048 2.048 4.096 3.072 6.144-50.176 40.96-86.016 92.16-99.328 156.672s-4.096 124.928 29.696 183.296c141.312-163.84 316.416-253.952 531.456-269.312-1.024 13.312-1.024 23.552-2.048 34.816-13.312 122.88 64.512 237.568 183.296 271.36 14.336 5.12 29.696 8.192 45.056 12.288z" />
<glyph unicode="&#xe905;" glyph-name="facebook" horiz-adv-x="503" d="M0 415.232c0 57.344 0 114.688 0 173.056 41.984 0 84.992 0 129.024 0 0 59.392-2.048 112.64 0 166.912 4.096 92.16 60.416 162.816 148.48 189.44 21.504 6.144 44.032 10.24 66.56 15.36 52.224 0 104.448 0 157.696 0 0-14.336 0-27.648 0-41.984-2.048-41.984-4.096-84.992-6.144-128-8.192 0-15.36 0-21.504 0-36.864 0-72.704 1.024-108.544-2.048-31.744-2.048-48.128-18.432-49.152-50.176-2.048-48.128 0-97.28 0-148.48 8.192 0 15.36 0 22.528 0 55.296 0 109.568-1.024 164.864-1.024 0-11.264 0-22.528 0-34.816-3.072-46.080-6.144-91.136-9.216-138.24-59.392 0-118.784 0-178.176 0 0-160.768 0-319.488 0-479.232-61.44 0-122.88 0-184.32 0-1.024 7.168-2.048 13.312-2.048 20.48 0 145.408 0 289.792 0 434.176 0 7.168 0 15.36 0 24.576-46.080 0-88.064 0-130.048 0z" />
<glyph unicode="&#xe906;" glyph-name="whatsapp" horiz-adv-x="1022" d="M454.656 960c38.912 0 77.824 0 116.736 0 4.096-1.024 8.192-4.096 12.288-4.096 206.848-30.72 370.688-179.2 420.864-381.952 7.168-29.696 11.264-60.416 16.384-92.16 0-18.432 0-37.888 0-56.32-2.048-13.312-4.096-27.648-6.144-40.96-48.128-345.088-423.936-545.792-728.064-381.952-9.216 5.12-23.552 5.12-34.816 3.072-45.056-11.264-90.112-24.576-135.168-37.888-37.888-11.264-75.776-21.504-116.736-32.768 26.624 74.752 51.2 145.408 77.824 216.064 7.168 19.456 5.12 33.792-5.12 51.2-169.984 292.864-9.216 664.576 320.512 743.424 20.48 6.144 40.96 10.24 61.44 14.336zM124.928 52.736c46.080 12.288 88.064 23.552 129.024 36.864 14.336 4.096 25.6 3.072 38.912-5.12 84.992-50.176 176.128-69.632 274.432-56.32 241.664 30.72 409.6 258.048 368.64 498.688-40.96 242.688-278.528 401.408-517.12 348.16-301.056-68.608-435.2-415.744-257.024-667.648 9.216-12.288 11.264-22.528 5.12-37.888-15.36-38.912-26.624-75.776-41.984-116.736zM237.568 592.384c1.024 45.056 17.408 83.968 48.128 116.736 30.72 33.792 79.872 24.576 96.256-17.408 11.264-27.648 19.456-57.344 32.768-84.992 11.264-24.576 6.144-43.008-8.192-62.464-33.792-46.080-32.768-46.080-1.024-95.232 38.912-58.368 91.136-101.376 155.648-131.072 16.384-7.168 27.648-5.12 37.888 10.24 11.264 16.384 23.552 30.72 34.816 47.104 8.192 12.288 17.408 16.384 31.744 10.24 35.84-18.432 72.704-35.84 107.52-55.296 6.144-4.096 12.288-14.336 12.288-22.528 3.072-58.368-41.984-115.712-100.352-121.856-29.696-4.096-62.464 0-92.16 8.192-116.736 33.792-203.776 110.592-274.432 207.872-32.768 46.080-65.536 94.208-76.8 150.528-2.048 11.264-2.048 25.6-4.096 39.936z" />
<glyph unicode="&#xe907;" glyph-name="linkedin" horiz-adv-x="1071" d="M841.728-62.976c0 5.12 0 8.192 0 12.288 0 123.904 0 246.784-1.024 370.688 0 29.696-5.12 58.368-18.432 84.992-19.456 40.96-57.344 59.392-103.424 56.32-58.368-4.096-95.232-36.864-113.664-90.112-6.144-17.408-5.12-36.864-6.144-55.296 0-122.88 0-244.736 0-367.616 0-11.264 0-11.264-11.264-11.264-68.608 0-138.24 0-206.848 0-3.072 0-7.168 0-10.24 0 0 230.4 0 459.776 0 690.176 3.072 0 6.144 0 9.216 0 69.632 0 140.288 0 209.92 0 8.192 0 10.24-2.048 10.24-10.24-1.024-27.648 0-56.32 0-86.016 8.192 10.24 14.336 18.432 20.48 26.624 38.912 49.152 90.112 76.8 153.6 83.968 54.272 5.12 106.496-1.024 156.672-25.6 43.008-21.504 75.776-53.248 98.304-95.232 31.744-58.368 41.984-121.856 41.984-187.392 0-130.048 0-259.072 0-389.12 0-2.048 0-5.12 0-7.168-76.8 0-152.576 0-229.376 0zM14.336-64c0 5.12 0 8.192 0 11.264 0 222.208 0 445.44 0 667.648 0 11.264 0 11.264 11.264 11.264 68.608 0 138.24 0 206.848 0 8.192 0 11.264-2.048 11.264-10.24 0-223.232 0-446.464 0-670.72 0-8.192-2.048-10.24-10.24-10.24-69.632 0-139.264 0-208.896 0-3.072 1.024-6.144 1.024-10.24 1.024zM129.024 720.384c-45.056 1.024-83.968 15.36-109.568 55.296-38.912 59.392-18.432 151.552 64.512 176.128 44.032 13.312 87.040 10.24 125.952-16.384 38.912-27.648 53.248-66.56 47.104-112.64s-31.744-76.8-75.776-93.184c-16.384-6.144-34.816-8.192-52.224-11.264 0 1.024 0 2.048 0 2.048z" />
<glyph unicode="&#xe908;" glyph-name="messenger_icon_2" horiz-adv-x="970" d="M485.053 960c-269.474 0-485.053-204.8-485.053-458.105 0-129.347 53.895-242.526 145.516-323.368v-242.526l204.8 123.958c43.116-10.779 86.232-16.168 134.737-16.168 269.474 0 485.053 204.8 485.053 458.105s-215.579 458.105-485.053 458.105zM533.558 356.379l-129.347 129.347-231.747-129.347 253.305 280.253 129.347-129.347 226.358 129.347-247.916-280.253z" />
<glyph unicode="&#xe909;" glyph-name="youtube_icon_2" horiz-adv-x="1480" d="M1447.692 800.294c-16.91 62.943-66.701 112.734-130.583 129.644-115.552 30.062-577.761 30.062-577.761 30.062s-453.754 1.879-569.306-28.183c-63.883-16.91-124.947-68.58-141.857-131.523-31.002-114.613-28.183-352.294-28.183-352.294s-2.818-237.681 28.183-352.294c16.91-62.943 78.914-114.613 141.857-131.523 115.552-31.002 569.306-28.183 569.306-28.183s453.754-1.879 569.306 28.183c63.883 16.91 123.068 68.58 139.978 131.523 31.002 113.673 31.002 352.294 31.002 352.294s-0.939 237.681-31.941 352.294zM597.49 220.653v454.694l369.204-227.347-369.204-227.347z" />
<glyph unicode="&#xe90a;" glyph-name="instagram" d="M509.291 658.399c-126.42 0-231.168-102.942-231.168-231.168s102.942-231.168 231.168-231.168 231.168 104.748 231.168 231.168-104.748 231.168-231.168 231.168zM509.291 279.139c-81.27 0-148.092 66.822-148.092 148.092s66.822 148.092 148.092 148.092 148.092-66.822 148.092-148.092-66.822-148.092-148.092-148.092zM801.862 663.817c0-28.925-23.449-52.374-52.374-52.374s-52.374 23.449-52.374 52.374c0 28.925 23.449 52.374 52.374 52.374s52.374-23.449 52.374-52.374zM884.938 799.266c-46.956 48.762-113.778 74.046-189.63 74.046h-372.035c-157.122 0-261.869-104.748-261.869-261.869v-370.229c0-77.658 25.284-144.48 75.852-193.242 48.762-46.956 113.778-70.434 187.824-70.434h368.423c77.658 0 142.674 25.284 189.63 70.434 48.762 46.956 74.046 113.778 74.046 191.436v372.035c0 75.852-25.284 140.868-72.24 187.824zM877.714 239.407c0-55.986-19.866-101.136-52.374-131.838s-77.658-46.956-131.838-46.956h-368.423c-54.18 0-99.33 16.254-131.838 46.956-32.508 32.508-48.762 77.658-48.762 133.644v370.229c0 54.18 16.254 99.33 48.762 131.838 30.702 30.702 77.658 46.956 131.838 46.956h372.035c54.18 0 99.33-16.254 131.838-48.762 30.702-32.508 48.762-77.658 48.762-130.032v-372.035z" />
<glyph unicode="&#xe90b;" glyph-name="email_icon" horiz-adv-x="1377" d="M0 848.134v-86.050l688.403-344.202 688.403 344.202v86.050c0 60.235-51.63 111.866-111.866 111.866h-1153.076c-60.235 0-111.866-43.025-111.866-111.866zM0 658.824v-610.958c0-60.235 51.63-111.866 111.866-111.866h1153.076c60.235 0 111.866 51.63 111.866 111.866v610.958l-688.403-344.202-688.403 344.202z" />
<glyph unicode="&#xe90c;" glyph-name="print_icon" horiz-adv-x="1196" d="M597.956 713.343c171.912 0 343.825 0 515.737 0 29.898 0 52.321-7.474 67.27-37.372 7.474-14.949 7.474-29.898 7.474-44.847 0-127.066 0-254.131 0-381.197 0-52.321-29.898-82.219-82.219-74.745-44.847 0-89.693 0-134.54 0-7.474 0-14.949 0-14.949-14.949 0-52.321 0-104.642 0-149.489s-29.898-74.745-74.745-74.745c-7.474 0-22.423 0-29.898 0-186.861 0-366.248 0-553.109 0-22.423 0-37.372 0-59.796 7.474-22.423 14.949-37.372 37.372-37.372 67.27 0 52.321 0 104.642 0 149.489 0 14.949-7.474 14.949-14.949 14.949-44.847 0-89.693 0-127.066 0-52.321 0-74.745 29.898-74.745 74.745 0 127.066 0 254.131 0 381.197 0 29.898 14.949 59.796 44.847 67.27 14.949 7.474 22.423 7.474 37.372 7.474 186.861 7.474 358.774 7.474 530.686 7.474zM597.956 324.672c0 0 0 0 0 0-104.642 0-209.285 0-313.927 0-7.474 0-14.949 0-14.949-14.949 0-22.423 0-52.321 0-74.745 0-74.745 0-149.489 0-224.234 0-22.423 7.474-29.898 29.898-29.898 186.861 0 381.197 0 568.058 0 7.474 0 22.423 0 29.898 0 14.949 0 22.423 14.949 22.423 22.423 0 97.168 0 201.81 0 298.978 0 14.949 0 14.949-14.949 14.949-97.168 7.474-201.81 7.474-306.453 7.474zM949.255 511.533c29.898 0 52.321 22.423 52.321 52.321s-22.423 52.321-59.796 52.321c-29.898 0-52.321-22.423-52.321-52.321 7.474-29.898 29.898-52.321 59.796-52.321zM971.679 765.664c-14.949 0-29.898 0-37.372 0-231.708 0-463.416 0-695.124 0-7.474 0-14.949 0-14.949 14.949 0 37.372 0 74.745 0 112.117s29.898 74.745 67.27 74.745c7.474 0 14.949 0 22.423 0 194.336 0 388.672 0 583.007 0 44.847 0 74.745-29.898 74.745-74.745 0-37.372 0-67.27 0-104.642 0-14.949 0-22.423 0-22.423zM373.723 175.182c0 14.949 0 29.898 0 44.847 149.489 0 298.978 0 448.467 0 0-14.949 0-29.898 0-44.847-149.489 0-298.978 0-448.467 0zM545.635 78.015c-52.321 0-104.642 0-156.964 0-7.474 0-14.949 0-14.949 14.949 0 7.474 0 14.949 0 22.423s0 14.949 14.949 14.949c7.474 0 14.949 0 22.423 0 97.168 0 194.336 0 291.504 0 22.423 0 22.423 0 22.423-22.423 0-29.898 0-29.898-29.898-29.898-52.321 0-97.168 0-149.489 0 0 0 0 0 0 0z" />
<glyph unicode="&#xe90d;" glyph-name="tumblr_icon" horiz-adv-x="725" d="M253.124 960c63.281 0 120.809 0 184.090 0 0-86.292 0-166.831 0-253.124 97.798 0 189.843 0 287.64 0 0-63.281 0-126.562 0-195.596-97.798 0-189.843 0-287.64 0 0-5.753 0-11.506 0-11.506 0-92.045 0-184.090 0-276.135 0-69.034 34.517-103.551 103.551-115.056 63.281-5.753 120.809 0 172.584 28.764 5.753 0 5.753 5.753 11.506 5.753 0-5.753 0-5.753 0-11.506 0-46.022 0-86.292 0-132.315 0-5.753 0-11.506-11.506-17.258-92.045-34.517-184.090-51.775-287.64-46.022-57.528 5.753-115.056 17.258-166.831 46.022-69.034 40.27-103.551 97.798-103.551 178.337 0 120.809 0 235.865 0 356.674 0 5.753 0 11.506 0 17.258-51.775 0-103.551 0-155.326 0 0 5.753 0 5.753 0 11.506 0 40.27 0 86.292 0 126.562 0 5.753 0 11.506 11.506 11.506 17.258 5.753 40.27 11.506 57.528 17.258 92.045 34.517 149.573 103.551 172.584 201.348 0 5.753 5.753 17.258 5.753 23.011 0 17.258 5.753 28.764 5.753 34.517z" />
<glyph unicode="&#xe90e;" glyph-name="telegram_icon" horiz-adv-x="896" d="M893.4 762.8l-135.2-637.6c-10.2-45-36.8-56.2-74.6-35l-206 151.8-99.4-95.6c-11-11-20.2-20.2-41.4-20.2l14.8 209.8 381.8 345c16.6 14.8-3.6 23-25.8 8.2l-472-297.2-203.2 63.6c-44.2 13.8-45 44.2 9.2 65.4l794.8 306.2c36.8 13.8 69-8.2 57-64.4z" />
<glyph unicode="&#xe90f;" glyph-name="thread" horiz-adv-x="896" d="M663 488.6c4.4-1.8 8.4-3.8 12.6-5.6 58.4-28.2 101.2-70.4 123.6-122.8 31.4-73 34.4-191.6-60.6-286.4-72.4-72.4-160.6-105-285.2-106h-0.6c-140.4 1-248.2 48.2-320.8 140.4-64.6 82-97.8 196.2-99 339.2v1c1 143 34.2 257.2 98.8 339.2 72.6 92.2 180.6 139.4 321 140.4h0.6c140.6-1 249.8-48 324.6-139.8 36.8-45.4 64-100 81.2-163.4l-80.8-21.6c-14.2 51.6-35.6 95.6-64.4 130.8-58.4 71.6-146 108.4-261 109.2-114-1-200.2-37.6-256.4-108.8-52.4-66.6-79.6-163-80.6-286.4 1-123.4 28.2-219.8 80.6-286.6 56-71.2 142.4-107.8 256.4-108.8 102.8 0.8 170.8 25.2 227.4 81.8 64.6 64.4 63.4 143.6 42.8 191.8-12.2 28.4-34.2 52-63.8 69.8-7.4-53.8-23.6-96.6-49.4-129.6-34.2-43.6-82.8-67.2-145.4-70.6-47.2-2.6-92.6 8.8-127.8 32-41.6 27.6-66 69.6-68.6 118.6-5 96.6 71.4 166 190.4 172.8 42.2 2.4 81.8 0.6 118.4-5.6-4.8 29.6-14.6 53.2-29.2 70.4-20 23.4-51.2 35.4-92.4 35.6h-1.4c-33.2 0-78-9.2-106.6-52.6l-68.8 47.2c38.4 58.2 100.6 90.2 175.6 90.2h1.6c125.2-0.8 199.8-79 207.4-215.4l-0.4-0.4zM351 351c2.6-50.2 56.8-73.6 109.2-70.6 51.2 2.8 109.2 22.8 119 146.4-26.4 5.8-55.6 8.8-86.8 8.8-9.6 0-19.2-0.2-28.8-0.8-85.8-4.8-114.4-46.4-112.4-83.6l-0.2-0.2z" />
<glyph unicode="&#xe910;" glyph-name="bluesky" d="M223.6 835.6c116.8-87.4 242.4-265 288.4-360.4 46 95.2 171.6 272.8 288.4 360.4 84.2 63.2 220.6 112 220.6-43.6 0-31-17.8-261-28.2-298.4-36.4-129.6-168.8-162.8-286.6-142.6 205.8-35 258.2-151 145-267-214.8-220.4-308.6 55.2-332.6 125.8v0c-3.4 9.8-5.2 15.6-6.6 15.6s-3.2-6-6.6-15.6v0c-24-70.6-118-346.2-332.6-125.8-113 116-60.8 232 145 267-117.8-20.2-250.2 13-286.4 142.8-10.6 37.4-28.4 267.4-28.4 298.4 0 155.6 136.4 106.8 220.6 43.6z" />
<glyph unicode="&#xe911;" glyph-name="Copy-button-icon" horiz-adv-x="896" d="M896 604.8c0.282 2.018 0.443 4.35 0.443 6.72s-0.161 4.702-0.473 6.986l0.030-0.266v5.12c-2.912 6.569-7.026 12.118-12.108 16.595l-0.052 0.045-298.88 304.64c-4.097 3.63-8.719 6.823-13.701 9.42l-0.379 0.18h-4.48c-4.753 3.005-10.399 5.057-16.458 5.743l-0.182 0.017h-201.6c-41.399-0.198-78.764-17.308-105.571-44.77l-0.029-0.030c-26.915-28.265-43.485-66.594-43.52-108.793v-51.207h-49.92c-41.427-0.042-78.84-17.191-105.563-44.762l-0.037-0.038c-26.915-28.265-43.485-66.594-43.52-108.793v-512.007c0.035-42.206 16.605-80.535 43.581-108.865l-0.061 0.065c26.76-27.609 64.173-44.758 105.592-44.8h398.728c41.399 0.198 78.764 17.308 105.571 44.77l0.029 0.030c26.915 28.265 43.485 66.594 43.52 108.793v51.207h49.92c41.427 0.042 78.84 17.191 105.563 44.762l0.037 0.038c26.915 28.265 43.485 66.594 43.52 108.793v310.407zM597.12 785.28l128-132.48h-78.080c-0.1-0.001-0.219-0.001-0.338-0.001-13.666 0-26.016 5.636-34.852 14.71l-0.010 0.011c-8.906 9.559-14.456 22.347-14.719 36.428l-0.001 0.052zM597.12 89.6c-0.010-14.063-5.355-26.875-14.12-36.525l0.040 0.045c-8.998-9.047-21.438-14.664-35.189-14.72h-398.731c-13.762 0.056-26.202 5.673-35.198 14.718l-0.002 0.002c-8.725 9.605-14.070 22.417-14.080 36.478v512.002c-0.020 0.55-0.031 1.197-0.031 1.846 0 14.093 5.359 26.935 14.151 36.598l-0.039-0.044c8.998 9.047 21.438 14.664 35.189 14.72h49.931v-358.4c0.035-42.206 16.605-80.535 43.581-108.865l-0.061 0.065c26.836-27.492 64.201-44.602 105.563-44.8h248.997zM796.16 294.4c-0.010-14.063-5.355-26.875-14.12-36.525l0.040 0.045c-8.998-9.047-21.438-14.664-35.189-14.72h-398.731c-0.533-0.020-1.158-0.032-1.786-0.032-12.871 0-24.605 4.871-33.457 12.871l0.043-0.039c-8.725 9.605-14.070 22.417-14.080 36.478v512.002c0.010 14.063 5.355 26.875 14.12 36.525l-0.040-0.045c8.998 9.047 21.438 14.664 35.189 14.72h149.771v-151.68c-0.003-0.343-0.004-0.748-0.004-1.154 0-41.847 16.596-79.817 43.565-107.689l-0.041 0.042c26.76-27.609 64.173-44.758 105.592-44.8h149.128z" />
<glyph unicode="&#xe920;" glyph-name="x" d="M778.411 864h141.141l-308.352-352.427 362.752-479.573h-284.032l-222.464 290.859-254.549-290.859h-141.227l329.813 376.96-347.989 455.040h291.243l201.088-265.856zM728.875 116.48h78.208l-504.832 667.477h-83.925z" />
</font>
</defs>
</svg>
